Search in ebookee.net!

Pluralsight: Android Location-Based Apps [repost]

标签: 程序设计



The poster (email) is not available. 收藏推荐: Bookmark this: Pluralsight Android Location Based Apps repost

图书介绍


Pluralsight Android Location Based Apps repost

Pluralsight: Android Location-Based Apps
English | WMV + Project Files | 1024 x 768 | AVC ~54.5 kbps | 15 fps
WMA | 48 Kbps | 44.1 KHz | channel | Subs: English (srt) | 3h 33m | 303 MB
Genre: Video Tutorial / Android

“In this course we cover the wide range of location capabilities of the Android platform including determining user location, power management, translating location data into human-readable street addresses, and much more.”
Virtually all Android devices now include the ability to determine the user’s location.
The overwhelming majority of apps can benefit from incorporating location information as knowing a user’s location allows your app to better personalize the user experience.
In this course we cover the wide range of location capabilities of the Android platform including the different ways to determine the user’s location, the performance and power usage implications of different location strategies, how to translate the raw location coordinates into meaningful street addresses, and much more.
Content:
Android Location Basics

Introduction
Accessing the location system
Location providers and security
Handling location information
Demo: Handling location information
Receiving location updates
Demo: Receiving location updates
Getting a single location value
Demo: Getting a single location value
Summary

Android Location Providers

Introduction
Providers and provider characteristics
Selecting providers by behavior
Demo: Selecting providers by behavior
Provider availability and influences
Demo: Provider availability and influences - Part 1
Demo: Provider availability and influences - Part 2
Enabling location-related features
Demo: Enabling location-related features
Accessing underlying GPS information
The Passive location provider
Demo: The Passive location provider
Summary

Android Location Management and Threading

Introduction
Moving location off main thread
Demo: Moving location off main thread
Updating UI from location thread
Demo: Updating UI from location thread
Background location tracking
Demo: Background location tracking
Summary

Controlling Android Location Frequency

Introduction
Reducing frequency of location updates
Ways to receive location updates
Location and PendingIntents
Implementing location with PendingIntents
Demo: Implementing location with PendingIntents
When to avoid location with PendingIntents
Proximity alerts
Summary

Human-Readable Location Information

Introduction
Location Information - computers vs. people
Geocoder class
Demo: Geocoder class
How Geocoder class works
Using Geocoder in a UI friendly manner
Demo: Using Geocoder in a UI friendly manner
Summary

Exercise includes slides, code and transcripts
More Info: http://pluralsight.com/training/Courses/TableOfContents/android-location-based-apps

Pluralsight Android Location Based Apps repostMediaInfo:
General
Complete name : 01.Introduction.wmv
Format : Windows Media
File size : 715 KiB
Duration : 50s 132ms
Overall bit rate mode : Variable
Overall bit rate : 117 Kbps
Maximum Overall bit rate : 317 Kbps
Movie name : basics-01
Encoded date : UTC 2013-01-02 00:51:04.312
Video #2
ID : 2
Format : VC-1
Format profile : [email protected]
Codec ID : WMV3
Codec ID/Info : Windows Media Video 9
Codec ID/Hint : WMV3
Description of the codec : Windows Media Video 9
Duration : 50s 133ms
Bit rate mode : Variable
Bit rate : 54.5 Kbps
Width : 1 024 pixels
Height : 768 pixels
Display aspect ratio : 4:3
Frame rate : 15.000 fps
Bit depth : 8 bits
Scan type : Progressive
Compression mode : Lossy
Bits/(Pixel*Frame) : 0.005
Stream size : 334 KiB (47%)
Language : English (US)
Audio #1
ID : 1
Format : WMA
Format version : Version 2
Codec ID : 161
Codec ID/Info : Windows Media Audio
Description of the codec : Windows Media Audio 9.2 - 48 kbps, 44 kHz, mono (A/V) 1-pass CBR
Duration : 50s 131ms
Bit rate mode : Constant
Bit rate : 48.0 Kbps
Channel(s) : 1 channel
Sampling rate : 44.1 KHz
Bit depth : 16 bits
Stream size : 294 KiB (41%)
Language : English (US)
Screenshots

Pluralsight Android Location Based Apps repost

Pluralsight Android Location Based Apps repost

Pluralsight Android Location Based Apps repost

For more, Visit my AH-blog

Pluralsight Android Location Based Apps repost



[Directly Download] Pluralsight: Android Location-Based Apps [repost]!


Download this book
DOWNLOAD Free download ezdownloader, then you can free download.

Download "Pluralsight: Android Location-Based Apps [repost]"

使用ezdownloader下载
DOWNLOAD


Copyright Disclaimer:
本站一切内容源于互联网搜索,禁止商用! 如有任何不妥请联系:[email protected],我们将在24小时内删除相关内容。

浏览量:0 添加时间:2013-06-29 01:04:58, 更新时间:2013-06-29 01:04:58, from internet

搜索该书!...


Search mirrors of "Pluralsight: Android Location-Based Apps [repost]"...

Search in ebookee.com!

下载链接


Free Magazine Subscriptions & Technical Document Downloads

推荐:使用EZdownloader下载电子书


没有下载链接
请在图书介绍里查找下载链接,如果没有,可以试着搜索有无其它该书信息。

不能下载?
如果不能下载或者在“图书介绍”中找不到 "Pluralsight: Android Location-Based Apps [repost]" 的下载链接请留言。下次访问本站时察看 所有留言 看是否有人已经更新了该书。

该书可能有其它下载链接,请点 这里查询相关图书


相关链接


"Pluralsight: Android Location-Based Apps [repost]" 相关链接:


Comments


"Pluralsight: Android Location-Based Apps [repost]" 没有评论.

    Leave a Comment

    如果没有下载链接或者下载链接无效,请查看相关链接或者搜索相关资料。

    required

    required

    email addresses

    required

    Not clear? Click to refresh.


    1. 艺术设计
    2. 有声读物
    3. 语言文化
    4. 家庭生活
    5. 法律
    6. 音乐歌词
    7. 软件相关
    8. BT种子
    9. 其它图书
    10. 所有留言
    11. 留言评论
    12. Download Thousands of Books two weeks for FREE!
    13. Download millions of Usenet resources!
    14. 海淀驾校
    Back to Top